<?xml version="1.0" standalone="no"?>
<!DOCTYPE svg PUBLIC "-//W3C//DTD SVG 1.1//EN" "http://www.w3.org/Graphics/SVG/1.1/DTD/svg11.dtd" >
<svg xmlns="http://www.w3.org/2000/svg">
<metadata>Generated by IcoMoon</metadata>
<defs>
<font id="icomoon" horiz-adv-x="1024">
<font-face units-per-em="1024" ascent="960" descent="-64" />
<missing-glyph horiz-adv-x="1024" />
<glyph unicode="&#x20;" horiz-adv-x="512" d="" />
<glyph unicode="&#xe900;" glyph-name="chevron-up" d="M830.369 249.052c-5.239-0.031-10.429 0.973-15.28 2.952s-9.261 4.895-12.98 8.584l-290.145 290.414-290.145-290.414c-7.497-7.491-17.661-11.698-28.259-11.698s-20.764 4.207-28.259 11.698c-7.497 7.491-11.706 17.65-11.706 28.245s4.209 20.755 11.706 28.245l318.402 318.263c3.701 3.731 8.101 6.687 12.952 8.708s10.052 3.059 15.308 3.059c5.256 0 10.456-1.041 15.308-3.059s9.251-4.977 12.952-8.708l318.401-318.263c3.731-3.699 6.691-8.099 8.715-12.944 2.018-4.85 3.060-10.046 3.060-15.299s-1.043-10.451-3.060-15.298c-2.023-4.85-4.98-9.247-8.715-12.945-3.717-3.689-8.129-6.603-12.98-8.584s-10.041-2.984-15.28-2.952z" />
<glyph unicode="&#xe901;" glyph-name="bag" d="M398.653 614.784v-33.589h-77.006v33.589h-50.76v12.4c0-5.538-6.802-12.4-12.69-12.4h12.69v-512.754h-12.69c5.888 0 12.69-6.864 12.69-12.399v12.399h482.234v-12.399c0 5.534 6.799 12.399 12.686 12.399h-12.686v512.754h12.686c-5.887 0-12.686 6.862-12.686 12.4v-12.4h-46.441v-33.589h-77.005v33.589h-231.019zM399.016 690.776h230.294c-4.722 58.285-54.867 104.543-115.146 104.543s-110.424-46.258-115.146-104.543zM706.46 690.776h59.344c36.347 0 63.452-27.339 63.452-63.595v-537.552c0-36.255-27.107-63.599-63.452-63.599h-507.61c-36.344 0-63.452 27.342-63.452 63.599v537.552c0 36.255 27.107 63.595 63.452 63.595h63.669c4.838 99.369 89.328 179.192 192.299 179.192s187.456-79.822 192.3-179.192z" />
<glyph unicode="&#xe902;" glyph-name="indicator" d="M909.434 211.020c0-97.383-78.944-176.327-176.327-176.327s-176.327 78.944-176.327 176.327c0 97.383 78.944 176.327 176.327 176.327s176.327-78.944 176.327-176.327z" />
<glyph unicode="&#xe903;" glyph-name="mail" d="M856.159 695.614c-0.096 0.853-0.227 1.66-0.52 2.447-0.24 0.742-0.58 1.387-0.97 2.044-0.374 0.677-0.762 1.287-1.268 1.883-0.53 0.661-1.2 1.176-1.892 1.71-0.358 0.288-0.621 0.677-1.024 0.918-0.227 0.127-0.489 0.127-0.73 0.241-0.732 0.402-1.527 0.61-2.336 0.838-0.797 0.207-1.539 0.402-2.353 0.469-0.259 0.015-0.5 0.161-0.797 0.161h-664.538c-0.291 0-0.536-0.146-0.827-0.177-0.762-0.046-1.492-0.241-2.255-0.436-0.827-0.241-1.64-0.449-2.417-0.853-0.21-0.114-0.469-0.114-0.699-0.241-0.42-0.241-0.651-0.631-1.037-0.918-0.699-0.53-1.347-1.045-1.882-1.71-0.52-0.597-0.909-1.206-1.282-1.87-0.388-0.677-0.732-1.32-0.99-2.064-0.244-0.791-0.373-1.595-0.469-2.447-0.066-0.469-0.308-0.884-0.308-1.367v-492.487c0-6.674 5.465-12.084 12.165-12.084h664.538c6.715 0 12.167 5.414 12.167 12.084v492.487c0 0.482-0.211 0.903-0.277 1.367zM821.921 682.155c-36.079-53.019-151.616-206.857-309.879-261.146-158.267 54.294-273.788 208.129-309.883 261.146h619.762zM191.974 654c33.647-47.556 103.077-134.728 198.724-198.685-97.368-75.622-167.887-170.091-198.724-215.505v414.194zM203.891 213.827c24.304 37.019 101.065 146.312 208.473 227.685 29.753-18.010 61.761-33.54 95.795-44.835 0.015-0.015 0.047 0 0.096-0.015 1.2-0.388 2.467-0.597 3.764-0.597 1.266 0 2.529 0.208 3.749 0.597 0.015 0.015 0.047 0 0.082 0.015 34.052 11.294 65.992 26.806 95.727 44.788 107.407-81.372 184.157-190.631 208.472-227.635h-616.163zM832.082 239.616c-30.74 45.333-101.307 139.915-198.805 215.65 95.697 63.958 165.179 151.176 198.805 198.734v-414.386z" />
<glyph unicode="&#xe904;" glyph-name="zoom" d="M596.234 601.811h-198.934v198.934c0 9.922-8.056 17.971-17.971 17.971s-17.971-8.056-17.971-17.971v-198.934h-198.863c-9.946 0-17.971-8.056-17.971-17.971s8.032-17.971 17.971-17.971h198.863v-198.934c0-9.922 8.056-17.971 17.971-17.971s17.971 8.056 17.971 17.971v198.934h198.934c9.922 0 17.971 8.056 17.971 17.971s-8.056 17.971-17.971 17.971v0zM1015.476-33.329l-361.278 361.278c62.614 67.214 101.289 157.025 101.289 255.893 0 207.417-168.742 376.158-376.158 376.158-207.369 0-376.063-168.742-376.063-376.158 0-207.369 168.694-376.135 376.063-376.135 95.609 0 182.736 36.158 249.155 95.131l361.591-361.591c3.497-3.497 8.098-5.247 12.698-5.247s9.207 1.75 12.698 5.247c7.018 7.018 7.018 18.403 0 25.426v0zM379.328 243.648c-187.529 0-340.12 152.64-340.12 340.186 0 187.6 152.592 340.212 340.12 340.212 187.577 0 340.212-152.616 340.212-340.212 0-187.553-152.64-340.186-340.212-340.186v0z" />
<glyph unicode="&#xe905;" glyph-name="power" d="M849.904 751.787l-48.263 48.263c-26.624 26.693-69.84 26.693-96.533 0-26.624-26.624-26.624-69.84 0-96.533l48.263-48.263c133.333-133.333 133.333-349.409 0-482.737-133.262-133.262-349.409-133.262-482.737 0-133.262 133.333-133.262 349.409 0 482.737l48.263 48.263c26.693 26.693 26.693 69.909 0 96.533-26.624 26.693-69.84 26.693-96.533 0l-48.263-48.263c-186.654-186.584-186.654-489.227 0-675.796 186.654-186.654 489.227-186.654 675.796 0 186.654 186.584 186.654 489.227 0 675.796v0zM512.032 550.391c37.695 0 68.264 30.587 68.264 68.264v273.082c0 37.758-30.587 68.264-68.264 68.264-37.758 0-68.264-30.522-68.264-68.264v-273.082c0-37.695 30.522-68.264 68.264-68.264v0z" />
<glyph unicode="&#xe906;" glyph-name="person" d="M816.715 369.466c22.656 54.816 36.589 115.635 36.589 180.963 0 226.153-152.836 409.571-341.312 409.571-188.535 0-341.312-183.421-341.312-409.571 0-65.327 13.861-126.149 36.522-180.963-104.921-87.649-173.045-217.757-173.045-365.135 0-37.755 30.514-68.331 68.263-68.331 37.683 0 68.263 30.581 68.263 68.331 0 98.093 41.981 185.944 108.266 248.203 61.092-68.808 142.663-111.746 233.047-111.746 90.311 0 171.884 42.937 232.979 111.746 66.283-62.255 108.338-150.108 108.338-248.203 0-37.755 30.514-68.331 68.263-68.331 37.683 0 68.263 30.581 68.263 68.331 0 147.378-68.194 277.486-173.116 365.135v0zM511.996 277.312c-113.114 0-204.787 122.259-204.787 273.118 0 150.792 91.677 272.981 204.787 272.981s204.787-122.19 204.787-272.981c0-150.86-91.677-273.118-204.787-273.118v0z" />
<glyph unicode="&#xe907;" glyph-name="menu" d="M0 755.2c0 24.035 19.485 43.52 43.52 43.52h936.96c24.033 0 43.52-19.485 43.52-43.52s-19.487-43.52-43.52-43.52h-936.96c-24.035 0-43.52 19.485-43.52 43.52zM0 447.999c0 24.035 19.485 43.52 43.52 43.52h669.83c24.039 0 43.52-19.485 43.52-43.52s-19.482-43.52-43.52-43.52h-669.83c-24.035 0-43.52 19.485-43.52 43.52zM43.52 184.32c-24.035 0-43.52-19.487-43.52-43.52s19.485-43.52 43.52-43.52h936.96c24.033 0 43.52 19.487 43.52 43.52s-19.487 43.52-43.52 43.52h-936.96z" />
<glyph unicode="&#xe908;" glyph-name="wishlist" d="M566.456 808.263c41.667 31.087 92.928 49.337 148.296 49.337 142.848 0 258.048-113.778 258.048-254.862 0-200.248-460.8-564.338-460.8-564.338s-460.8 364.088-460.8 564.338c0 141.084 115.2 254.862 258.048 254.862 55.368 0 106.627-18.25 148.297-49.337 15.51-13.227 42.399-38.669 54.455-55.336 12.056 16.667 38.946 42.109 54.456 55.336z" />
<glyph unicode="&#xe909;" glyph-name="star" d="M512 127.419l-316.435-166.36 60.436 352.355-256.001 249.54 353.786 51.406 158.214 320.583 158.214-320.583 353.786-51.406-256.001-249.54 60.436-352.355z" />
<glyph unicode="&#xe90a;" glyph-name="trash" d="M418.415 860.111c-32.606 0-58.983-27.439-58.983-60.423v-45.769h-155.884c-14.656 0-26.38-12.355-26.38-26.799s11.727-26.799 26.38-26.799h34.606l19.159-553.625c0-60.786 48.306-110.807 107.933-110.807h293.508c59.615 0 107.933 49.927 107.933 110.302l19.159 554.128h34.606c14.656 0 26.38 12.335 26.38 26.799s-11.727 26.799-26.38 26.799h-142.743v45.769c0 32.984-26.441 60.423-59.084 60.423h-200.22zM418.415 833.513h200.22c8.814 0 10.179-10.784 16.051-16.76-5.892 5.856-7.166 16.361-16.051 16.361h-200.22c-8.866 0-10.073-10.517-15.946-16.361 5.858 5.959 7.185 16.76 15.946 16.76zM418.415 806.513h200.22c3.276 0 6.222-2.788 6.222-6.823v-45.769h-212.559v45.769c0 4.065 2.905 6.823 6.117 6.823zM203.547 727.326h616.932c-0.153 0-0.203 0.255-0.203-0.201s0.044-0.201 0.203-0.201h-616.926c0.104 0 0.203-0.277 0.203 0.201s-0.104 0.201-0.203 0.201zM291.018 700.327h441.868l-18.957-553.725-0.104 0.104c0-31.86-24.787-57.209-55.071-57.209h-293.508c-30.284 0-55.071 25.265-55.071 57.71v0.201l-19.158 552.924zM511.704 618.526c-14.633 0-26.481-12.435-26.481-26.899v-393.841c0-14.464 11.824-26.799 26.481-26.799s26.38 12.335 26.38 26.799v393.841c0 14.465-11.747 26.899-26.38 26.899zM411.592 556.701c-14.656 0-26.481-12.436-26.481-26.899v-270.087c0-14.464 11.824-26.899 26.481-26.899s26.38 12.435 26.38 26.899v270.087c0 14.465-11.727 26.899-26.38 26.899zM613.417 556.701c-14.656 0-26.481-12.436-26.481-26.899v-270.087c0-14.464 11.825-26.899 26.481-26.899s26.38 12.436 26.38 26.899v270.087c0 14.464-11.727 26.899-26.38 26.899zM307.57 87.685c14.781-15.253 35.137-24.79 57.678-24.79h293.508c22.527 0 42.905 9.426 57.678 24.59-14.77-15.347-35.15-24.991-57.678-24.991h-293.508c-22.605 0-42.897 9.718-57.678 25.194z" />
<glyph unicode="&#xe90b;" glyph-name="list-view" d="M0.006 959.999h204.8v-204.8h-204.8v204.8zM366.573 959.999h657.419v-204.8h-657.419v204.8zM366.573 550.391h657.419v-204.8h-657.419v204.8zM0.006 550.391h204.8v-204.8h-204.8v204.8zM366.573 140.8h657.419v-204.8h-657.419v204.8zM0.006 140.8h204.8v-204.8h-204.8v204.8z" />
<glyph unicode="&#xe90c;" glyph-name="grid-view" d="M0 959.999h204.8v-204.8h-204.8v204.8zM819.199 959.999h204.8v-204.8h-204.8v204.8zM409.607 959.999h204.8v-204.8h-204.8v204.8zM819.199 550.391h204.8v-204.8h-204.8v204.8zM409.607 550.391h204.8v-204.8h-204.8v204.8zM0 550.391h204.8v-204.8h-204.8v204.8zM819.199 140.8h204.8v-204.8h-204.8v204.8zM409.607 140.8h204.8v-204.8h-204.8v204.8zM0 140.8h204.8v-204.8h-204.8v204.8z" />
<glyph unicode="&#xe90d;" glyph-name="table-view" d="M0.003 959.999h1023.996v-204.8h-1023.996v204.8zM0.003 550.391h1023.996v-204.8h-1023.996v204.8zM0.003 140.8h1023.996v-204.8h-1023.996v204.8z" />
<glyph unicode="&#xe90e;" glyph-name="filter-icon" d="M513.194 817.212c10.865 0 19.679 8.815 19.679 19.679v62.505c0 10.865-8.815 19.679-19.679 19.679s-19.679-8.815-19.679-19.679v-62.505c0-10.865 8.815-19.679 19.679-19.679v0zM124.051 313.137c-10.89 0-19.679-8.815-19.679-19.679v-296.853c0-10.865 8.788-19.679 19.679-19.679 10.865 0 19.679 8.815 19.679 19.679v296.853c0 10.865-8.815 19.679-19.679 19.679v0zM902.331 381.551c10.865 0 19.679 8.815 19.679 19.679v498.166c0 10.865-8.815 19.679-19.679 19.679s-19.679-8.815-19.679-19.679v-498.166c0-10.865 8.815-19.679 19.679-19.679v0zM124.051 534.685c10.865 0 19.679 8.815 19.679 19.679v345.029c0 10.865-8.815 19.679-19.679 19.679-10.89 0-19.679-8.815-19.679-19.679v-345.029c0-10.865 8.788-19.679 19.679-19.679v0zM226.313 494.382h-206.613c-10.865 0-19.7-8.815-19.7-19.679v-101.418c0-10.865 8.836-19.679 19.7-19.679h206.613c10.89 0 19.7 8.815 19.7 19.679v101.418c0 10.865-8.815 19.679-19.7 19.679v0zM39.354 455.022h167.307v-62.057h-167.307v62.057zM902.331 160.374c-10.865 0-19.679-8.815-19.679-19.679v-144.084c0-10.865 8.815-19.679 19.679-19.679s19.679 8.815 19.679 19.679v144.084c0 10.865-8.815 19.679-19.679 19.679v0zM1004.321 341.167h-206.644c-10.89 0-19.679-8.815-19.679-19.679v-101.418c0-10.865 8.788-19.679 19.679-19.679h206.644c10.839 0 19.679 8.815 19.679 19.679v101.418c0 10.865-8.836 19.679-19.679 19.679v0zM817.366 301.808h167.28v-62.057h-167.28v62.057zM615.286 778.039h-206.586c-10.89 0-19.679-8.815-19.679-19.679v-101.443c0-10.865 8.788-19.679 19.679-19.679h206.586c10.865 0 19.679 8.815 19.679 19.679v101.443c0 10.865-8.815 19.679-19.679 19.679v0zM428.388 738.676h167.234v-62.057h-167.234v62.057zM513.194 598.241c-10.865 0-19.679-8.815-19.679-19.679v-581.95c0-10.865 8.815-19.679 19.679-19.679s19.679 8.815 19.679 19.679v581.95c0 10.865-8.815 19.679-19.679 19.679v0z" />
<glyph unicode="&#xe90f;" glyph-name="chevron-down" d="M193.627 646.949c5.239 0.031 10.43-0.973 15.281-2.952s9.261-4.896 12.979-8.586l290.146-290.415 290.146 290.415c7.497 7.491 17.661 11.698 28.261 11.698 10.598 0 20.761-4.207 28.259-11.698 7.49-7.491 11.705-17.651 11.705-28.245s-4.213-20.755-11.705-28.245l-318.405-318.264c-3.702-3.731-8.101-6.687-12.953-8.708s-10.052-3.059-15.308-3.059c-5.256 0-10.456 1.041-15.308 3.059s-9.251 4.977-12.953 8.708l-318.403 318.264c-3.731 3.699-6.691 8.099-8.714 12.944s-3.059 10.046-3.059 15.298c0 5.253 1.042 10.451 3.059 15.298s4.98 9.247 8.714 12.945c3.717 3.689 8.127 6.603 12.979 8.586s10.043 2.983 15.281 2.952z" />
<glyph unicode="&#xe910;" glyph-name="chevron-right" d="M313.052 129.631c-0.031 5.239 0.973 10.429 2.952 15.28s4.895 9.261 8.584 12.98l290.414 290.145-290.414 290.145c-7.491 7.497-11.698 17.661-11.698 28.259s4.207 20.764 11.698 28.259c7.491 7.497 17.65 11.706 28.245 11.706s20.755-4.209 28.245-11.706l318.263-318.402c3.731-3.701 6.687-8.101 8.708-12.952s3.059-10.052 3.059-15.308c0-5.256-1.041-10.456-3.059-15.308s-4.977-9.251-8.708-12.952l-318.263-318.401c-3.699-3.731-8.099-6.691-12.944-8.715-4.85-2.018-10.046-3.060-15.299-3.060s-10.451 1.043-15.298 3.060c-4.85 2.023-9.247 4.98-12.945 8.715-3.689 3.717-6.603 8.129-8.584 12.98s-2.984 10.041-2.952 15.28z" />
<glyph unicode="&#xe911;" glyph-name="chevron-left" d="M725.159 789.11c0.033-5.613-1.043-11.175-3.163-16.373s-5.246-9.923-9.199-13.906l-311.159-310.87 311.159-310.87c8.026-8.033 12.534-18.922 12.534-30.28 0-11.355-4.508-22.244-12.534-30.277-8.026-8.025-18.912-12.541-30.263-12.541s-22.238 4.514-30.263 12.541l-340.997 341.148c-3.997 3.966-7.165 8.68-9.33 13.878s-3.278 10.77-3.278 16.401c0 5.631 1.115 11.203 3.278 16.401s5.333 9.912 9.33 13.878l340.997 341.146c3.963 3.998 8.678 7.169 13.869 9.336s10.764 3.278 16.391 3.278c5.628 0 11.198-1.116 16.391-3.278s9.908-5.336 13.87-9.336c3.952-3.983 7.075-8.708 9.199-13.906s3.196-10.76 3.163-16.373z" />
<glyph unicode="&#xe912;" glyph-name="compare" d="M123.364 848.708c-23.928 0-43.328-19.4-43.328-43.328s19.4-43.328 43.328-43.328h777.272c23.932 0 43.328 19.4 43.328 43.328s-19.396 43.328-43.328 43.328h-777.272zM123.364 552.258c-23.928 0-43.328-19.4-43.328-43.328s19.4-43.328 43.328-43.328h777.272c23.932 0 43.328 19.399 43.328 43.328s-19.396 43.328-43.328 43.328h-777.272zM80.036 212.458c0 23.926 19.4 43.328 43.328 43.328h361.64v-86.656h-361.64c-23.928 0-43.328 19.396-43.328 43.328zM704.504 61.858c5.124-4.844 11.142-8.272 17.536-10.287 17.755-8.293 39.882-4.454 53.462 10.886l156.010 176.238c15.429 17.432 14.129 43.441-2.956 59.284-18.519 17.167-48.202 15.722-64.925-3.17l-126.34-142.722-60.851 57.539c-17.137 16.208-44.367 16.614-61.898 0.922-18.806-16.833-19.155-45.505-0.77-62.891l90.732-85.8z" />
<glyph unicode="&#xe913;" glyph-name="search" d="M65.422 556.328c0-186.733 152.749-338.232 340.096-338.232 73.544 0 141.524 23.524 197.079 63.053l266.109-264.414c10.33-10.264 23.875-15.311 37.176-15.311s26.846 5.048 37.17 15.311c20.7 20.568 20.7 54.014 0 74.582l-265.007 263.317c42.284 56.231 67.645 125.973 67.645 201.697 0 186.777-152.796 338.249-340.173 338.249-187.347 0-340.096-151.481-340.096-338.249zM889.095 37.005l-0.123 0.123c0.042-0.042 0.081-0.081 0.123-0.123zM589.556 369.23l-9.392-8.283c-46.674-41.178-107.705-66.293-174.647-66.293-145.51 0-263.54 117.669-263.54 261.676 0 144.046 118.030 261.693 263.54 261.693 145.558 0 263.616-117.657 263.616-261.693 0-68.558-26.943-130.959-70.938-177.883l-8.641-9.218z" />
<glyph unicode="&#xe914;" glyph-name="settings-fill" d="M511.991 575.992c-70.719 0-128-57.28-128-128 0-70.661 57.28-127.942 128-127.942 70.661 0 128 57.28 128 127.942 0 70.719-57.344 128-128 128v0zM897.593 365.427l0.255 0.382-9.533 5.705c4.993 24.7 7.682 50.303 7.682 76.481 0 26.246-2.69 51.841-7.682 76.545l9.533 5.705-0.255 0.446c37.248 22.337 62.407 62.719 62.407 109.312 0 70.719-57.344 128-128 128-24.127 0-46.393-7.048-65.599-18.623l-0.255 0.446-11.137-6.722c-34.113 28.097-72.582 50.367-115.010 65.408v23.488c0 70.719-57.344 128-128 128-70.719 0-128-57.28-128-128v-23.488c-42.433-15.041-80.959-37.314-115.010-65.408l-11.137 6.722-0.255-0.446c-19.201 11.582-41.538 18.623-65.599 18.623-70.719 0-128-57.28-128-128 0-46.588 25.154-86.98 62.407-109.312l-0.255-0.446 9.533-5.705c-4.993-24.7-7.682-50.303-7.682-76.545 0-26.178 2.69-51.771 7.682-76.481l-9.533-5.705 0.255-0.382c-37.248-22.397-62.407-62.791-62.407-109.433 0-70.661 57.28-128 128-128 24.066 0 46.393 7.104 65.599 18.687l0.255-0.446 11.137 6.722c34.046-28.097 72.582-50.367 115.010-65.408v-23.549c0-70.661 57.28-128 128-128 70.661 0 128 57.344 128 128v23.549c42.433 15.041 80.895 37.314 115.010 65.408l11.137-6.722 0.255 0.446c19.201-11.582 41.474-18.687 65.599-18.687 70.661 0 128 57.344 128 128 0 46.658-25.154 87.039-62.407 109.433v0zM511.991 191.989c-141.381 0-256.001 114.623-256.001 256.001s114.623 256.001 256.001 256.001c141.381 0 256.001-114.623 256.001-256.001s-114.623-256.001-256.001-256.001v0z" />
<glyph unicode="&#xe915;" glyph-name="settings" d="M474.663 960c-35.268 0-64.234-29.052-64.234-64.318v-63.49c-0.030-0.127-0.045-0.318-0.273-0.578-0.625-0.788-1.708-1.336-1.374-1.234l-0.892-0.255-94.189-38.909c0.264 0.127-0.054-0.009-0.791 0.064-0.533 0.064-0.933 0.318-1.085 0.446l-44.721 44.76c-24.934 24.768-65.824 24.76-90.752-0.064l-52.803-52.772c-12.1-12.032-18.921-28.469-18.921-45.533 0-17.036 6.789-33.451 18.892-45.452l44.845-44.862c0.067-0.127 0.131-0.127 0.165-0.446 0.105-0.916-0.236-2.022-0.124-1.812l-0.454-0.859-38.661-94.262c0.059 0.191-0.085-0.064-0.618-0.514-0.372-0.255-0.753-0.382-0.885-0.382h-63.577c-35.27-0.001-64.213-29.056-64.213-64.296v-74.604c0-35.224 28.941-64.273 64.211-64.273h63.557c0.133-0.031 0.292-0.043 0.585-0.255 0.794-0.642 1.371-1.735 1.275-1.419l0.254-0.814 38.815-94.117c0.018-0.055 0.135-0.382 0.079-0.795-0.052-0.382-0.204-0.578-0.264-0.661l-44.961-44.932c-12.124-12.057-18.921-28.521-18.921-45.593 0-17.122 6.847-33.509 18.892-45.45l53.011-53.073c25.037-24.453 65.724-24.421 90.623 0.318l45.646 45.682c0.243-0.127 0.261-0.127 1.83-0.922l0.768-0.382 94.044-38.582c-0.060 0.014 0.258-0.127 0.606-0.642 0.276-0.382 0.352-0.769 0.383-0.891v-63.512c0-35.278 28.976-64.315 64.234-64.315h74.549c35.309 0 64.419 28.988 64.419 64.315v64.962c0-4.115 1.862 0.446 1.389 0.318l0.898 0.255 94.363 38.878c-0.318-0.127 0.021-0.009 0.821-0.127 0.552-0.064 0.956-0.382 1.121-0.446l44.505-44.657c24.92-24.916 65.946-24.923 90.904-0.011l0.015 0.015 52.589 52.737c12.081 11.981 18.966 28.398 18.966 45.524 0 17.077-6.787 33.539-18.919 45.568l-44.721 44.649c-0.069 0.127-0.141 0.191-0.171 0.446-0.102 0.966 0.249 2.156 0.171 2.010l0.452 0.865 38.567 94.033c0.012 0.012 0.192 0.382 0.584 0.648 0.35 0.255 0.737 0.318 0.844 0.382h63.705c35.268 0 64.281 29.008 64.281 64.272v74.605c0 35.276-29.013 64.295-64.281 64.295v-0.008l-0.751 0.446-0.003-1.496c-7.945 0.064 0.324-1.177 0.324-1.177l0.42 2.213h-64.971c4.365 0-0.452 1.863-0.382 1.64l-0.267 0.878-38.833 94.15c0.007-0.003-0.119 0.382-0.048 0.878 0.057 0.382 0.237 0.648 0.306 0.756l44.709 44.744c12.168 12.035 18.981 28.485 18.981 45.517 0 17.063-6.805 33.478-18.873 45.478l-52.857 53.033c-24.887 24.6-65.629 24.625-90.658-0.064l-0.057-0.055-45.795-45.95c0.222 0.191 2.703-1.221-1.779 1.082l-0.747 0.382-93.826 38.505c-0.036 0.015-0.358 0.191-0.611 0.514-0.252 0.318-0.34 0.756-0.37 0.859v63.806c0 35.315-29.1 64.318-64.419 64.318h-74.549zM484.35 886.101h55.368v-55.393c0-32.402 20.644-61.239 50.938-69.994l-1.997 0.7 89.184-36.602-1.987 0.947c28.462-15.619 64.259-10.47 87.257 12.422l0.025 0.026 39.051 39.167 39.084-39.215-39.006-39.040c-22.98-22.909-28.625-57.994-13.209-85.534l-1.016 2.099 36.768-89.217-0.685 1.939c9.153-31.157 38.165-52.752 70.61-52.752h55.31v-55.352h-55.308c-32.429 0-61.221-20.757-70.026-51.047l0.685 1.958-36.555-89.147 0.947 1.984c-15.524-28.322-10.57-64.025 12.252-87.075l0.042-0.041 39.191-39.109-39.094-39.155-39.087 39.177c-13.774 13.772-32.813 20.942-52.591 20.942-12.166 0-23.208-2.22-33.171-7.909l2.243 1.101-89.254-36.78 1.896 0.674c-31.036-9.199-52.502-38.175-52.502-70.565v-55.37h-55.37v55.37c0 32.442-20.86 61.226-51.214 69.997l1.992-0.7-89.090 36.532 2.010-0.96c-10.56 5.812-22.491 8.614-34.644 8.614-19.743 0-38.762-7.197-52.515-20.985l-39.191-39.185-39.137 39.187 39.151 39.106c22.882 22.912 28.48 57.897 13.255 85.453l0.963-2.003-36.785 89.239 0.659-1.851c-9.27 30.993-38.147 52.547-70.517 52.547h-55.355v55.36h55.355c32.38 0 61.072 20.822 69.96 51.052l-0.667-1.895 36.509 89.147-0.97-2.029c15.669 28.442 10.513 64.28-12.511 87.182l-39.033 39.011 39.201 39.16 39.135-39.109c13.779-13.775 32.814-21.010 52.611-21.010 12.122 0 23.125 2.233 33.055 7.922l-2.251-1.107 89.157 36.831-1.948-0.687c31.166 9.165 52.826 38.134 52.826 70.575v55.393zM511.985 603.738c-85.692 0-155.737-70.037-155.737-155.74s70.047-155.717 155.737-155.717c85.668 0 155.685 70.020 155.685 155.717s-70.016 155.74-155.685 155.74zM511.985 529.828c45.23 0 81.778-36.525 81.778-81.826s-36.539-81.811-81.778-81.811c-45.29 0-81.823 36.502-81.823 81.811s36.533 81.826 81.823 81.826z" />
<glyph unicode="&#xe916;" glyph-name="ok_mark" d="M1007.26 853.64c-19.16 16.271-48.289 13.112-63.782-7.359l-431.695-566.090c-0.688-0.936-1.312-2.035-1.998-3.118l-108.394-143.362-325.661 313.645c-18.299 17.608-47.347 16.125-64.017-3.243h-0.117c-16.63-19.394-15.203-50.312 3.177-67.942l334.714-322.378c14.567-13.87 33.602-21.817 53.198-21.815 1.909 0 3.914 0.073 6.111 0.248 21.714 1.763 41.941 13.3 55.67 31.166l0.117 0.123 118.634 156.816 0.351 0.615c0.123 0.181 0.229 0.435 0.351 0.615l0.117 0.123 430.045 564.216c15.548 20.386 12.445 51.117-6.71 67.568l-14.832-19.444 14.723 19.57zM410.091 125.364c0.057-0.053 0.181-0.075 0.235-0.123v-0.123l-0.235 0.248z" />
<glyph unicode="&#xe917;" glyph-name="pencil" d="M844.159 716.801l-63.343 63.357c-17.5 17.49-40.449 26.243-63.371 26.243s-45.857-8.754-63.353-26.243l-384.662-384.659c-17.479-17.499-71.008-85.183-71.029-108.104l-44.8-197.797 197.753 44.8c0 0 90.654 53.557 108.153 71.057l384.659 384.645c34.979 35 34.979 91.738-0.007 126.7zM235.99 171.976l26.855 118.651c0.384 1.695 0.665 3.431 0.827 5.126 0.082 0.245 0.304 0.606 0.402 0.847l93.513-93.529c-3.129-1.898-6.279-3.794-9.373-5.658l-112.223-25.435zM434.353 253.434c-4.683-4.445-20.88-15.393-40.664-27.993l-107.135 107.146c10.983 15.063 23.219 30.208 30.751 37.722l267.364 267.34 116.955-116.953-267.268-267.262zM789.398 608.406l-58.49-58.48-116.955 116.953 58.497 58.48c7.791 7.833 18.178 12.117 29.221 12.117 11.050 0 21.441-4.32 29.261-12.117l58.474-58.48c7.819-7.794 12.1-18.176 12.1-29.239-0.007-11.025-4.305-21.441-12.103-29.239z" />
<glyph unicode="&#xe918;" glyph-name="phone" d="M299.471 80.266c-21.47 0-38.894 17.042-38.908 38.061v659.375c0.018 21.006 17.419 38.046 38.908 38.046h425.075c21.47 0 38.894-17.026 38.894-38.046v-659.39c0-21.007-17.403-38.061-38.894-38.061l-425.075 0.015zM277.671 777.702v-659.39c0.036-11.787 9.758-21.336 21.81-21.351h425.076c12.035 0.015 21.792 9.56 21.81 21.351v659.39c-0.018 11.772-9.775 21.319-21.81 21.336h-425.076c-12.052-0.017-21.775-9.56-21.81-21.336zM312.686 222.833v541.385h393.023v-541.402l-393.023 0.022zM697.236 231.317v0zM329.798 239.841h358.838v507.371h-358.838v-507.371zM465.993 161.037c0 21.797 18.045 39.465 40.345 39.483 22.264-0.022 40.328-17.668 40.345-39.483-0.018-21.797-18.063-39.465-40.345-39.483-22.301 0.036-40.345 17.691-40.345 39.483zM481.619 161.048c0.036-13.374 11.073-24.16 24.745-24.191 13.654 0.031 24.697 10.817 24.714 24.191-0.018 13.359-11.055 24.16-24.714 24.191-13.672-0.031-24.714-10.832-24.745-24.191z" />
<glyph unicode="&#xe919;" glyph-name="location" d="M511.984 806.399c-132.123 0-239.613-115.566-239.613-257.638 0-225.351 222.327-446.651 231.805-455.959 2.172-2.131 4.982-3.199 7.807-3.199 2.795 0 5.593 1.041 7.763 3.14 9.473 9.149 231.877 226.909 231.877 456.022 0 142.072-107.506 257.638-239.645 257.638zM512.035 116.696c-39.655 41.676-217.361 239.239-217.361 432.075 0 129.773 97.48 235.331 217.301 235.331 119.835 0 217.331-105.557 217.331-235.331 0-195.99-177.499-390.873-217.273-432.075zM512.021 720.75c-87.591 0-158.851-71.274-158.851-158.879s71.259-158.879 158.851-158.879c87.605 0 158.865 71.274 158.865 158.879s-71.259 158.879-158.865 158.879zM511.91 425.285c-75.289 0-136.538 61.264-136.538 136.568 0 75.289 61.249 136.568 136.538 136.568s136.552-61.279 136.552-136.568c0-75.304-61.264-136.568-136.552-136.568z" />
<glyph unicode="&#xe91a;" glyph-name="minus" d="M153.6 499.2h716.8c28.277 0 51.2-22.923 51.2-51.2s-22.923-51.2-51.2-51.2h-716.8c-28.277 0-51.2 22.923-51.2 51.2s22.923 51.2 51.2 51.2z" />
<glyph unicode="&#xe91b;" glyph-name="plus" d="M460.8 806.4c0 28.278 22.921 51.2 51.2 51.2s51.2-22.922 51.2-51.2v-307.2h307.2c28.279 0 51.2-22.922 51.2-51.2s-22.921-51.2-51.2-51.2h-307.2v-307.2c0-28.279-22.922-51.2-51.2-51.2s-51.2 22.921-51.2 51.2v307.2h-307.2c-28.278 0-51.2 22.921-51.2 51.2s22.922 51.2 51.2 51.2h307.2v307.2z" />
<glyph unicode="&#xe91c;" glyph-name="cross" d="M736.001 703.997q13.746 0 22.875-9.125t9.125-22.875q0-13.5-9.25-22.749l-201.504-201.252 201.504-201.252q9.25-9.25 9.25-22.749 0-13.746-9.125-22.875t-22.875-9.125q-13.5 0-22.749 9.25l-201.252 201.504-201.252-201.504q-9.25-9.25-22.749-9.25-13.746 0-22.875 9.125t-9.125 22.875q0 13.5 9.25 22.749l201.504 201.252-201.504 201.252q-9.25 9.25-9.25 22.749 0 13.746 9.125 22.875t22.875 9.125q13.5 0 22.749-9.25l201.252-201.504 201.252 201.504q9.25 9.25 22.749 9.25z" />
<glyph unicode="&#xe91d;" glyph-name="orders" d="M419.177 775.973c18.777-10.079 25.804-32.628 15.692-50.369l-78.608-137.923h310.337l-79.315 136.519c-10.259 17.659-3.463 40.346 15.17 50.668s42.062 4.38 52.319-13.278l101.027-173.909h158.346c22.969 0 41.586-17.629 41.586-39.372s-18.616-39.371-41.586-39.371h-37.773l-91.68-325.532c-11.328-40.216-49.797-68.201-93.752-68.201h-358.374c-43.96 0-82.424 27.981-93.753 68.201l-91.68 325.532h-37.281c-22.963 0-41.582 17.629-41.582 39.371s18.619 39.372 41.582 39.372h157.609l99.405 174.411c10.112 17.741 33.532 23.954 52.312 13.876zM790.298 508.935h-557.092l85.967-305.24c1.617-5.749 7.114-9.742 13.395-9.742h358.374c6.281 0 11.77 3.995 13.39 9.742l85.971 305.24z" />
<glyph unicode="&#xe91e;" glyph-name="account" d="M760.684 625.302c0 142.198-111.564 257.898-248.685 257.898s-248.685-115.697-248.685-257.898c0-142.198 111.565-257.899 248.685-257.899 48.339 0 82.498 8.924 121.441 30.812 123.776-69.97 210.638-156.497 230.733-309.622h-700.421c1.043 12.928 6.847 133.329 126.915 247.557 12.653 12.038 13.127 44.053-3.495 57.031s-48.009 3.945-60.97-7.758c-94.968-85.816-149.398-209.863-149.398-340.392 0-17.827 13.927-32.236 31.084-32.236h808.227c17.188 0 31.084 14.407 31.084 32.236 0 176.856-98.85 334.78-250.333 408.381 39.541 45.679 63.815 105.833 63.815 171.887zM344.924 628.32c0 93.894 73.632 170.251 164.172 170.251 90.543 0 164.174-76.355 164.174-170.251s-73.632-170.251-164.174-170.251c-90.54 0-164.172 76.355-164.172 170.251z" />
<glyph unicode="&#xe91f;" glyph-name="logout" d="M860.95 756.811c9.401 0 17.021-7.623 17.021-17.023v-583.588c0-9.401-7.623-17.021-17.021-17.021h-291.793c-17.46 0-31.615-14.156-31.615-31.614s14.152-31.607 31.615-31.607h291.793c44.318 0 80.243 35.925 80.243 80.243v583.588c0 44.318-35.925 80.243-80.243 80.243h-291.793c-17.46 0-31.615-14.152-31.615-31.612s14.152-31.612 31.615-31.612h291.793zM369.331 636.802c0 7.927 3.269 15.529 9.092 21.153 2.908 2.813 6.367 5.045 10.179 6.566s7.898 2.306 12.025 2.306c4.129 0 8.217-0.784 12.025-2.306s7.271-3.756 10.178-6.566l198.893-190.818c5.253-5.061 8.198-11.909 8.198-19.052s-2.944-13.99-8.198-19.051l-198.893-191.118c-5.93-5.645-13.958-8.807-22.314-8.776-8.358 0.024-16.359 3.24-22.249 8.931s-9.179 13.39-9.15 21.409c0.029 8.014 3.378 15.694 9.309 21.342l142.915 137.113h-407.255c-8.293 0-16.249 3.16-22.112 8.786s-9.161 13.26-9.161 21.214c0 7.956 3.293 15.587 9.161 21.214s13.818 8.786 22.112 8.786h408.196l-143.851 137.712c-5.823 5.621-9.092 13.226-9.092 21.153z" />
<glyph unicode="&#xe920;" glyph-name="my-account-profile" d="M134.788 786.037h754.42c26.374 0 47.753-20.408 47.753-45.576v-584.915c0-25.172-21.379-45.577-47.753-45.577h-754.42c-26.371 0-47.748 20.408-47.748 45.577v584.915c0 25.175 21.377 45.576 47.748 45.576zM870.852 717.667h-717.709v-546.936h717.709v546.936zM524.575 600.179v-16.388c0-9.362 10.69-16.95 23.874-16.95h195.090c13.183 0 23.873 7.588 23.873 16.95v16.388c0 9.362-10.69 16.951-23.873 16.951h-195.090c-13.184 0-23.874-7.589-23.874-16.951zM548.449 481.794h195.090c13.183 0 23.873-7.589 23.873-16.951v-16.387c0-9.363-10.69-16.951-23.873-16.951h-195.090c-13.184 0-23.874 7.588-23.874 16.951v16.387c0 9.362 10.69 16.951 23.874 16.951zM524.575 329.614v-16.388c0-9.362 10.69-16.951 23.874-16.951h195.090c13.183 0 23.873 7.589 23.873 16.951v16.388c0 9.362-10.69 16.95-23.873 16.95h-195.090c-13.184 0-23.874-7.588-23.874-16.95zM280.35 617.13h86.115c26.216 0 47.464-21.859 47.464-48.824v-83.405c0-26.964-21.252-48.824-47.464-48.824h-86.115c-26.216 0-47.464 21.859-47.464 48.824v83.405c0 26.964 21.252 48.824 47.464 48.824z" />
<glyph unicode="&#xe921;" glyph-name="altmail" d="M164.875 743.94c-13.647 0-25.801-2.836-37.753-9.416-12.092-5.87-21.731-15.215-28.387-25.078-9.185-11.89-12.89-26.182-12.89-40.479v-441.938c0-13.878 3.878-26.918 10.737-38.143 6.849-11.21 15.843-19.825 27.704-26.433 11.878-6.618 25.762-10.398 40.594-10.398h694.245c14.833 0 28.71 3.784 40.594 10.398 11.862 6.607 20.853 15.219 27.704 26.433 6.861 11.227 10.735 24.262 10.735 38.143v441.938c0 14.479-3.786 27.7-11.751 39.232-7.059 11.416-16.997 19.809-28.34 26.132l-0.331 0.17c-10.711 5.578-23.635 9.439-37.785 9.439h-695.074zM488.076 456.137l-289.786 232.517h629.832l-277.748-231.88c-16.76-13.475-44.996-14.045-62.304-0.642zM144.459 246.961v412.059l305.844-245.106c18.652-15.127 44.76-25.045 69.691-25.045 26.317 0 50.74 11.115 69.76 26.683l289.243 241.384v-409.898l-188.75 180.23-41.044-39.191 189.263-180.723h-653.402l190.030 180.704-41.043 39.189-189.594-180.289z" />
<glyph unicode="&#xe922;" glyph-name="add_compare" d="M80.192 804.688c0 23.92 19.392 43.312 43.312 43.312h776.993c23.924 0 43.312-19.392 43.312-43.312s-19.388-43.312-43.312-43.312h-776.993c-23.92 0-43.312 19.392-43.312 43.312zM80.192 508.346c0 23.92 19.392 43.312 43.312 43.312h776.993c23.924 0 43.312-19.392 43.312-43.312s-19.388-43.312-43.312-43.312h-776.993c-23.92 0-43.312 19.391-43.312 43.312zM123.504 255.29c-23.92 0-43.312-19.394-43.312-43.312 0-23.924 19.392-43.312 43.312-43.312h361.508v86.624h-361.508zM773.184 338.445c22.511 0 40.764-18.253 40.764-40.764v-61.148h66.242c22.511 0 40.764-18.253 40.764-40.764s-18.253-40.764-40.764-40.764h-66.242v-66.242c0-22.511-18.253-40.764-40.764-40.764s-40.764 18.253-40.764 40.764v66.242h-76.432c-22.511 0-40.764 18.253-40.764 40.764s18.253 40.764 40.764 40.764h76.432v61.148c0 22.511 18.253 40.764 40.764 40.764z" />
<glyph unicode="&#xe923;" glyph-name="book-1" d="M222.98 870.159l289.034-128.477 289.043 128.481c15.413 6.732 34.611 1.121 42.669-14.646 8.331-16.334 0.452-35.123-15.515-42.233l-316.195-140.524-316.186 140.52c-15.969 7.109-23.856 25.903-15.528 42.237 8.057 15.765 27.278 21.383 42.681 14.641zM918.176 735.286c0 11.23-6.159 21.164-15.512 26.685-9.332 5.527-20.786 6.051-30.524 1.77l-0.057-0.025-360.084-160.051-360.104 160.043c-9.774 4.325-21.28 3.755-30.577-1.739-9.323-5.521-15.494-15.461-15.494-26.685v-514.874c0-12.647 7.781-23.481 18.862-28.411l373.695-166.091c4.372-1.945 9.028-2.874 13.618-2.874 4.592 0 9.258 0.935 13.633 2.883l373.691 166.079c11.079 4.936 18.851 15.764 18.851 28.411v514.874zM170.667 240.446v445.939l308.779-137.227v-445.947l-308.779 137.237zM544.398 103.236v445.943l308.713 137.206v-445.939l-308.713-137.21z" />
<glyph unicode="&#xe924;" glyph-name="heart" d="M566.456 808.263c41.667 31.087 92.928 49.337 148.296 49.337 142.848 0 258.048-113.778 258.048-254.862 0-200.248-460.8-564.338-460.8-564.338s-460.8 364.088-460.8 564.338c0 141.084 115.2 254.862 258.048 254.862 55.368 0 106.627-18.25 148.297-49.337 15.51-13.227 42.399-38.669 54.455-55.336 12.056 16.667 38.946 42.109 54.456 55.336z" />
<glyph unicode="&#xe925;" glyph-name="heart-o" d="M714.752 857.6c-55.368 0-106.63-18.25-148.296-49.337-15.512-13.227-42.402-38.669-54.456-55.336-12.056 16.667-38.946 42.109-54.455 55.336-41.672 31.087-92.932 49.337-148.297 49.337-142.848 0-258.048-113.778-258.048-254.862 0-200.248 460.8-564.338 460.8-564.338s460.8 364.088 460.8 564.338c0 141.084-115.2 254.862-258.048 254.862zM309.248 780.792c55.92 0 107.438-27.138 140.52-72.882l62.232-86.048 62.23 86.048c33.085 45.744 84.602 72.882 140.522 72.882 100.645 0 181.248-79.608 181.248-178.062 0-35.368-30.92-96.378-89.192-170.555-32.824-41.784-73.021-86.369-118.918-132.602-48.872-49.234-101.452-97.64-154.056-143.006-9.768-8.424-11.016-9.63-12.316-10.774-1.151-1.018-2.344-1.987-9.521-7.88-7.177 5.894-8.37 6.86-9.521 7.88-1.302 1.143-2.552 2.35-12.316 10.774-52.6 45.368-105.182 93.772-154.056 143.006-45.894 46.233-86.088 90.817-118.916 132.602-58.27 74.177-89.192 135.188-89.192 170.555 0 98.456 80.602 178.062 181.248 178.062z" />
<glyph unicode="&#xe926;" glyph-name="bag-plus" d="M786.285 764.952c45.349 0 79.238-34.28 79.238-79.579v-310.516h-97.524v292.571h-572.951v-610.791h292.571v-97.524h-310.857c-42.91 0-75.63 30.72-78.994 72.509l-0.244 7.022v646.728c0 45.349 33.89 79.579 79.238 79.579zM481.523 959.999c124.148 0 225.963-99.474 231.375-223.183l0.244-10.338v-123.221h-97.524v123.221c0 74.801-60.562 135.997-134.095 135.997-70.802 0-129.609-56.759-133.851-127.756l-0.244-8.29v-123.173h-97.524v123.221c0 128.439 104.009 233.521 231.619 233.521zM780.19 228.571c26.917 0 48.762-21.845 48.762-48.762v-48.762h48.762c26.917 0 48.762-21.845 48.762-48.762s-21.845-48.762-48.762-48.762h-48.762v-48.762c0-26.917-21.845-48.762-48.762-48.762s-48.762 21.845-48.762 48.762v48.762h-48.762c-26.917 0-48.762 21.845-48.762 48.762s21.845 48.762 48.762 48.762h48.762v48.762c0 26.917 21.845 48.762 48.762 48.762z" />
<glyph unicode="&#xe927;" glyph-name="garage" d="M928.169 489.773c-22.986 0-41.618 19.436-41.618 43.413v59.911l-374.553 195.36-374.553-195.36v-59.911c0-23.975-18.634-43.413-41.617-43.413s-41.617 19.436-41.617 43.413v86.826c0.047 16.348 8.893 31.282 22.891 38.636l416.17 217.064c11.78 6.19 25.677 6.19 37.454 0l416.171-217.064c13.992-7.355 22.84-22.289 22.891-38.636v-86.826c0-23.975-18.632-43.413-41.618-43.413zM257.675 415.515c0 14.044 11.387 25.432 25.432 25.432h457.786c14.049 0 25.432-11.387 25.432-25.432v-15.259c0-14.045-11.384-25.429-25.432-25.429h-457.786c-14.045 0-25.432 11.384-25.432 25.429v15.259zM486.564 636.24c-14.044 0-25.432-11.387-25.432-25.432v-27.25c0-14.044 11.387-25.432 25.432-25.432h50.865c14.044 0 25.432 11.387 25.432 25.432v27.25c0 14.045-11.387 25.432-25.432 25.432h-50.865zM257.675 269.047c0 14.049 11.387 25.432 25.432 25.432h457.786c14.049 0 25.432-11.384 25.432-25.432v-15.259c0-14.043-11.384-25.432-25.432-25.432h-457.786c-14.045 0-25.432 11.39-25.432 25.432v15.259zM283.108 148.013c-14.045 0-25.432-11.39-25.432-25.432v-15.259c0-14.049 11.387-25.432 25.432-25.432h457.786c14.049 0 25.432 11.384 25.432 25.432v15.259c0 14.043-11.384 25.432-25.432 25.432h-457.786zM944.356 401.889c14.043 0 25.432-11.389 25.432-25.431v-335.381c0-14.043-11.39-25.432-25.432-25.432h-30.519c-14.043 0-25.432 11.39-25.432 25.432v335.381c0 14.043 11.39 25.431 25.432 25.431h30.519zM135.598 376.459c0 14.043-11.387 25.431-25.432 25.431h-30.52c-14.044 0-25.432-11.389-25.432-25.431v-335.381c0-14.043 11.387-25.432 25.432-25.432h30.52c14.044 0 25.432 11.39 25.432 25.432v335.381z" />
<glyph unicode="&#xe928;" glyph-name="diamond" d="M923.924 567.12h-823.849c-6.677 0-12.743 4.011-15.56 10.285s-1.862 13.671 2.437 18.953l197.587 242.764c3.261 4.011 8.058 6.321 13.122 6.321h428.723c5.061 0 9.857-2.311 13.117-6.321l197.545-242.764c4.3-5.287 5.255-12.685 2.443-18.953-2.818-6.266-8.886-10.285-15.564-10.285zM136.997 602.681h750.016l-168.611 207.206h-412.765l-168.642-207.206zM511.993 50.557l-425.055 522.894 26.261 22.9 398.796-490.577 398.796 490.577 26.261-22.9-425.059-522.894zM511.993 60.392c-7.288 0-13.763 4.758-16.185 11.869l-172.461 506.732c-1.898 5.557-1.002 11.709 2.36 16.455l172.461 242.764c6.452 9.105 21.169 9.105 27.643 0l172.492-242.764c3.371-4.739 4.258-10.898 2.36-16.455l-172.492-506.732c-2.413-7.113-8.888-11.869-16.176-11.869zM358.739 581.943l153.245-450.308 153.282 450.308-153.272 215.73-153.255-215.73zM722.561 829.602l27.642-6.2-34.272-240.416-27.642 6.2 34.272 240.416zM272.022 823.407l34.272-240.416 27.641 6.2c0 0-9.525 66.812-14.287 100.223-6.662 46.732-19.987 140.199-19.987 140.199l-27.641-6.2z" />
<glyph unicode="&#xe929;" glyph-name="dashboard" d="M79.36 749.722v-595.456c0-25.6 21.76-46.387 48.64-46.387h768c26.88 0 48.64 20.787 48.64 46.438v595.456c0 25.6-21.76 46.387-48.64 46.387h-768c-26.88 0-48.64-20.787-48.64-46.387zM146.637 726.579h730.726v-556.851h-730.726v556.851zM227.84 642.56h102.4c14.138 0 25.6-11.462 25.6-25.6s-11.462-25.6-25.6-25.6h-102.4c-14.138 0-25.6 11.462-25.6 25.6s11.462 25.6 25.6 25.6zM227.84 540.16h102.4c14.138 0 25.6-11.462 25.6-25.6s-11.462-25.6-25.6-25.6h-102.4c-14.138 0-25.6 11.462-25.6 25.6s11.462 25.6 25.6 25.6zM202.24 412.16v0c0-14.138 11.462-25.6 25.6-25.6h102.4c14.138 0 25.6 11.462 25.6 25.6s-11.462 25.6-25.6 25.6h-102.4c-14.138 0-25.6-11.462-25.6-25.6zM458.24 258.56v153.6c0 14.138 11.462 25.6 25.6 25.6s25.6-11.462 25.6-25.6v-153.6c0-14.138-11.462-25.6-25.6-25.6s-25.6 11.462-25.6 25.6zM586.24 232.96v0c14.138 0 25.6 11.462 25.6 25.6v256c0 14.138-11.462 25.6-25.6 25.6s-25.6-11.462-25.6-25.6v-256c0-14.138 11.462-25.6 25.6-25.6zM663.040 258.56v307.2c0 14.138 11.462 25.6 25.6 25.6s25.6-11.462 25.6-25.6v-307.2c0-14.138-11.462-25.6-25.6-25.6s-25.6 11.462-25.6 25.6zM791.040 232.96v0c14.138 0 25.6 11.462 25.6 25.6v358.4c0 14.138-11.462 25.6-25.6 25.6s-25.6-11.462-25.6-25.6v-358.4c0-14.138 11.462-25.6 25.6-25.6z" />
<glyph unicode="&#xe92a;" glyph-name="cart-add" d="M370.534 637.338v-35.738h-81.92v35.738h-54.016v-545.485h-13.517c6.298 0 13.517-7.27 13.517-13.158v13.158h277.402v-80.845h-290.918c-38.656 0-67.482 29.082-67.482 67.686v571.853c0 38.554 28.826 67.584 67.482 67.584h67.738c5.12 105.779 95.027 190.669 204.595 190.669s199.424-84.941 204.544-190.618h63.13c38.656 0 67.533-29.082 67.533-67.635v-304.947h-80.998v291.738h-49.408v-35.738h-81.92v35.738h-245.76zM615.885 718.182c-5.018 61.952-58.368 111.206-122.47 111.206-64.154 0-117.504-49.203-122.522-111.206h244.992zM773.12 243.2c22.622 0 40.96-18.338 40.96-40.96v0-61.44h66.56c22.622 0 40.96-18.338 40.96-40.96s-18.338-40.96-40.96-40.96h-66.56v-66.56c0-22.622-18.338-40.96-40.96-40.96s-40.96 18.338-40.96 40.96v0 66.56h-76.8c-22.622 0-40.96 18.338-40.96 40.96s18.338 40.96 40.96 40.96h76.8v61.44c0 22.622 18.338 40.96 40.96 40.96v0z" />
<glyph unicode="&#xe92b;" glyph-name="orders-list" d="M171.215 82.286h632.811c27.234 0 49.308 19.622 49.308 43.832v692.527c0 24.207-22.075 43.831-49.308 43.831h-632.811c-27.233 0-49.31-19.624-49.31-43.831v-692.527c0-24.21 22.077-43.832 49.31-43.832zM195.869 142.965v658.829h591.718v-658.829h-591.718zM292.852 330.85l-0.039-34.133c-0.009-8.075 6.533-14.633 14.612-14.643l34.133-0.039c8.079-0.010 14.636 6.534 14.645 14.614l0.039 34.133c0.009 8.080-6.533 14.633-14.612 14.643l-34.133 0.039c-8.079 0.010-14.636-6.534-14.645-14.614zM293.029 489.328l-0.038-34.135c-0.009-8.075 6.533-14.633 14.612-14.643l34.133-0.039c8.079-0.010 14.636 6.534 14.645 14.614l0.038 34.132c0.009 8.079-6.533 14.636-14.612 14.645l-34.133 0.038c-8.079 0.009-14.636-6.533-14.645-14.612zM293.207 647.72l-0.039-34.133c-0.009-8.079 6.533-14.636 14.612-14.645l34.133-0.038c8.079-0.009 14.636 6.533 14.645 14.612l0.038 34.133c0.009 8.079-6.533 14.636-14.612 14.645l-34.133 0.038c-8.079 0.009-14.636-6.533-14.645-14.612zM683.096 630.216c0.005 13.465-7.948 24.378-17.754 24.375l-213.161-0.080c-9.81-0.003-17.766-10.922-17.77-24.387s7.946-24.378 17.756-24.374l213.161 0.080c9.811 0.003 17.764 10.922 17.769 24.387zM665.156 447.356l-213.162-0.083c-9.81-0.005-17.76 10.908-17.756 24.376 0.004 13.464 7.959 24.383 17.77 24.386l213.158 0.080c9.811 0.004 17.764-10.909 17.759-24.374-0.005-13.468-7.963-24.386-17.769-24.386zM664.971 291.318l-213.157-0.083c-9.81-0.005-17.76 10.908-17.756 24.376 0.003 13.463 7.959 24.381 17.77 24.386l213.158 0.083c9.811 0 17.759-10.913 17.759-24.376-0.005-13.468-7.963-24.386-17.774-24.386z" />
</font>
</defs>
</svg>
